Quantcast

Listening now to this stereo/mono CD.

Help Support QuadraphonicQuad:

cbmmm3

300 Club - QQ All-Star
Joined
Apr 2, 2011
Messages
341
a little hot but not too bad. prolly the best issue avail. rivals the 1997 issue- but goes above. love the extras
 

4-earredwonder

2K Club - QQ Super Nova
Joined
Jan 9, 2013
Messages
13,892
Finally got around to listening to this Spectacular 2 RBCD set remastered to perfection by Bernie Grundman. Both discs, IMO, are SUPERB and the B sides, rare takes and DJ remixes are equally fascinating

 

cbmmm3

300 Club - QQ All-Star
Joined
Apr 2, 2011
Messages
341
A Sampler. A nice sampler. But not just any sampler. A sampler that made me realize that my pseudo second career of making the most incredible awesome cassette mix tapes for friends and family was in serious jeopardy. lol. BTW - yes - this is a great sampler

justsayyes.jpg
 

musicmemorabiliashoppellc

1K Club - QQ Shooting Star
Joined
Mar 24, 2018
Messages
1,578
Location
Spacewarp Planet
Aerosmith Central Park NYC Aug. 29/75 My favorite of all live Aerosmith shows ever....Aerosmith at their absolute PEAK of performance....the best ever!!! The stereo separation is AWESOME!! The best I've ever heard this show Bar None!!! No it's no longer a bootleg.
!!!
Aerosmith The Broadcast Collection Front Cover.jpgAerosmith The Broadcast Collection Back Cover.jpgAerosmith The Broadcast Collection Disc 4 NYC 1975.jpg

Followed very closely by Rockin The Joint Live from The Hard Rock Cafe in Vegas!!! Awesome show + Video!!! Just wish the whole show was shot and put on this disc instead of just 4 tracks!! Anyone know if the whole show showed up on YouTube at all?


Aerosmith Rockin' The Joint Front Cover.jpgAerosmith Rockin' The Joint Back Cover.jpg

Here is No More No More from this disc.......Go Joe .Go just listen to that solo at the end AWESOME.....my favorite song they ever did!!! Followed closely by Sick As A Dog

 
Last edited:

cbmmm3

300 Club - QQ All-Star
Joined
Apr 2, 2011
Messages
341
my gosh, Nick Cave doing Cosmic Dancer sounds like an incredible David Bowie version. .....RIP David
 

The Rang

1K Club - QQ Shooting Star
Joined
Nov 12, 2006
Messages
1,467
Location
Delta, BC, Canada
82AFB612-1D4E-4B43-B9E0-F7193448E508.jpeg

This version released this year by Rubellan Remasters. Sounds fine but not quite the sonic revelation I was expecting based on the reviews. The bonus tracks cover everything included on the Australian version but missing on the US release ( and vice versa)
 

Marplot

800 Club - QQ All-Star
Joined
Mar 20, 2018
Messages
811
Location
Ohio, USA
Capture.PNG

Sounds as expected, so if you dig the Furs it is worth a listen.
I know we have a love/hate relationship with the DR but can I get an ouch?!
foobar2000 1.4.3 / Dynamic Range Meter 1.1.1
log date: 2020-09-15 12:19:01

--------------------------------------------------------------------------------
Analyzed: The Psychedelic Furs / Made Of Rain
--------------------------------------------------------------------------------

DR Peak RMS Duration Track
--------------------------------------------------------------------------------
DR5 -0.14 dB -6.93 dB 3:37 01-The Boy That Invented Rock & Roll
DR4 -0.14 dB -5.74 dB 3:45 02-Don't Believe
DR5 -0.14 dB -7.80 dB 4:48 03-You'll Be Mine
DR5 -0.14 dB -7.04 dB 4:13 04-Wrong Train
DR6 -0.14 dB -7.70 dB 5:10 05-This'll Never Be Like Love
DR6 -0.14 dB -7.85 dB 5:37 06-Ash Wednesday
DR4 -0.14 dB -6.37 dB 4:23 07-Come All Ye Faithful
DR5 -0.14 dB -6.96 dB 4:23 08-No-One
DR6 -0.14 dB -10.16 dB 3:46 09-Tiny Hands
DR5 -0.14 dB -6.95 dB 3:46 10-Hide The Medicine
DR6 -0.14 dB -7.67 dB 4:14 11-Turn Your Back On Me
DR5 -0.14 dB -8.36 dB 3:57 12-Stars
--------------------------------------------------------------------------------

Number of tracks: 12
Official DR value: DR5

Samplerate: 44100 Hz
Channels: 2
Bits per sample: 16
Bitrate: 939 kbps
Codec: FLAC
================================================================================
 

marpow

2K Club - QQ Super Nova
Joined
Jul 9, 2015
Messages
3,731
Location
San Mateo CA
I received the new Metallica and SF Symphony a couple of days ago, I only have car audio now and I like the two CD's sometime later I will watch the Blu Ray.
I purchased direct from Rhino.
81cvtN334vL._SX522_.jpg
 

mattB2

500 Club - QQ All-Star
QQ Supporter
Since 2002/2003
Joined
Jul 13, 2002
Messages
503
Location
Luton, UK
Richard and Linda Thompson Hard Luck Stories 1972-1982. Terrific box set with eight CDs, all for £56 from Amazon UK (although this seems to have been a pre-release price and it's gone up a bit now). It's very well mastered with only a couple of tracks from "Sunny Vista" sounding a bit compressed - a remarkable job given the variety of sources. Some people in the UK seem to have had some problems playing or ripping some of the content but my OPPO 203 found no problems. Great music and great value. :LB :LB :LB
 
Top