Quantcast

Listening now to this stereo/mono CD.

Help Support QuadraphonicQuad:

musicmemorabiliashoppellc

1K Club - QQ Shooting Star
Joined
Mar 24, 2018
Messages
1,837
Location
Spacewarp Planet

Attachments

Last edited:

cbmmm3

400 Club - QQ All-Star
QQ Supporter
Joined
Apr 2, 2011
Messages
411

musicmemorabiliashoppellc

1K Club - QQ Shooting Star
Joined
Mar 24, 2018
Messages
1,837
Location
Spacewarp Planet
Listening to the best of Max Webster collection called "The Party" an 8 CD collection. Great band from Toronto my home town!! Available on an 8 LP set as well.

View attachment 59566
View attachment 59567
Mas Webster in concert 1980.....the BEST party band EVER!!


Anyone have a.......HANGOVER!!!
I will never understand why these guys never made it SUPER HUGE.....they ROCKED BIG TIME.....and had fun doing it!!! Isn't that what it's all about in the 1st place
 

Marplot

900 Club - QQ All-Star
Joined
Mar 20, 2018
Messages
961
Location
Ohio, USA
Nick Cave, Idiot Prayer, Nick Cave Alone At Alexandra Palace
"...it finds him performing alone in a deserted concert hall, reworking 22 career-spanning songs into haunted piano sermons. The 84 minutes are filled almost entirely by melancholy keys and Cave’s rich croon. "
folder.jpg
 

Marplot

900 Club - QQ All-Star
Joined
Mar 20, 2018
Messages
961
Location
Ohio, USA
Oh, and since it is just Nick and a piano, the CD has a great DR
--------------------------------------------------------------------------------
Analyzed: Nick Cave / Idiot Prayer, Nick Cave Alone At Alexandra Palace
--------------------------------------------------------------------------------

DR Peak RMS Duration Track
--------------------------------------------------------------------------------
DR15 -4.07 dB -23.75 dB 1:49 01-Spinning Song
DR12 -0.28 dB -15.46 dB 3:09 02-Idiot Prayer
DR12 -0.29 dB -15.71 dB 3:44 03-Sad Waters
DR12 -0.30 dB -16.18 dB 3:22 04-Brompton Oratory
DR9 -0.28 dB -13.63 dB 3:44 05-Palaces Of Montezuma
DR12 -0.28 dB -15.51 dB 4:32 06-Girl In Amber
DR12 -0.29 dB -16.38 dB 3:04 07-Man In The Moon
DR12 -0.28 dB -16.24 dB 3:57 08-Nobody's Baby Now
DR11 -0.28 dB -15.75 dB 4:30 09-(Are You) The One That I've Been Waiting For
DR12 -0.29 dB -15.44 dB 3:03 10-Waiting For You
DR8 -0.27 dB -12.54 dB 4:55 11-The Mercy Seat
DR15 -0.41 dB -20.17 dB 3:01 12-Euthanasia
DR8 -0.17 dB -11.71 dB 4:33 13-Jubilee Street
DR13 -0.29 dB -17.05 dB 4:14 14-Far From Me
DR10 -0.26 dB -13.46 dB 2:53 15-He Wants You
DR10 -0.27 dB -15.35 dB 6:59 16-Higgs Boson Blues
DR14 -0.29 dB -17.96 dB 3:34 17-Stranger Than Kindness
DR13 -0.30 dB -16.54 dB 4:53 18-Into My Arms
DR12 -0.29 dB -15.64 dB 3:08 19-The Ship Song
DR9 -0.26 dB -13.14 dB 4:31 20-Papa Won't Leave You, Henry
DR14 -3.20 dB -20.71 dB 3:03 21-Black Hair
DR12 -0.29 dB -16.82 dB 3:33 22-Galleon Ship
--------------------------------------------------------------------------------

Number of tracks: 22
Official DR value: DR12

Samplerate: 44100 Hz
Channels: 2
Bits per sample: 16
Bitrate: 570 kbps
Codec: FLAC
================================================================================
 

4-earredwonder

2K Club - QQ Super Nova
Joined
Jan 9, 2013
Messages
14,333
Finally Arrived from Import CD at the very nice price of $30 delivered [Rhino's List: $54.95] for 8 superbly remastered RBCDs, each in their own gatefold enclosures. A highlight: the LIVE 1974 Concert at the Record Plant recorded weeks before Stevie Nicks and Lindsey Buckingham joined the MACS. Copious bonus tracks are also included with each disc. The only caveat: the enclosed booklet only lists the track info and NO biographical /background info. Comes in a very sturdy clamshell box!

VERY HIGHLY RECOMMENDED


 
Last edited:

musicmemorabiliashoppellc

1K Club - QQ Shooting Star
Joined
Mar 24, 2018
Messages
1,837
Location
Spacewarp Planet
Finally Arrived from Import CD at the very nice price of $30 delivered [Rhino's List: $54.95] for 8 superbly remastered RBCDs, each in their own gatefold enclosures. A highlight: the LIVE 1974 Concert at the Record Plant recorded weeks before Stevie Nicks and Lindsey Buckingham joined the MACS. Copious bonus tracks are also included with each disc. The only caveat: the enclosed booklet only lists the track info and NO biographical /background info. Comes in a very sturdy clamshell box!

VERY HIGHLY RECOMMENDED


HIGHLY recommended you say......LMAO 🤣 🤣 🤣 🤣 :smokin :smokin :smokin :smokin
 

musicmemorabiliashoppellc

1K Club - QQ Shooting Star
Joined
Mar 24, 2018
Messages
1,837
Location
Spacewarp Planet
Finally Arrived from Import CD at the very nice price of $30 delivered [Rhino's List: $54.95] for 8 superbly remastered RBCDs, each in their own gatefold enclosures. A highlight: the LIVE 1974 Concert at the Record Plant recorded weeks before Stevie Nicks and Lindsey Buckingham joined the MACS. Copious bonus tracks are also included with each disc. The only caveat: the enclosed booklet only lists the track info and NO biographical /background info. Comes in a very sturdy clamshell box!

VERY HIGHLY RECOMMENDED


Here's a great deal for you Ralphie.....Go for a "Free Ride" lookin' for "Frankstein" when "They Only Come Out At Night".....6 CD set available at IMPORT (crappy service) CD's for $28 and change delivered.....couldn't refuse that deal.....STUPENDOUS reviews!!! Ordered it earlier today
1606186969067.png
 

Marplot

900 Club - QQ All-Star
Joined
Mar 20, 2018
Messages
961
Location
Ohio, USA
Sparky from Demented Are A Go is a better singer than James .. :geek:
Jan, I'll have to look for Pagan's Mind to try, your tastes often coincide with my own.
 

cbmmm3

400 Club - QQ All-Star
QQ Supporter
Joined
Apr 2, 2011
Messages
411
1989. And a great album from The Church. Gold Afternoon Fix. IMHO they peaked hereabouts and/or the next album Priest = Aura

church.jpg
 

cbmmm3

400 Club - QQ All-Star
QQ Supporter
Joined
Apr 2, 2011
Messages
411
Julian Cope. Quite the eccentric chap. This is his foray into a popular music format. Its a very very good album with great production. Find it cheap and buy it

cope.jpg
 
Top