Listening to Now In SACD Stereo (or Mono)

Help Support QuadraphonicQuad:

GOS

2K Club - QQ Super Nova
QQ Supporter
Joined
Apr 23, 2013
Messages
16,311
Location
Central Illinois
Scorpions - Blackout

foobar2000 1.6.2 / Dynamic Range Meter 1.1.1
log date: 2021-07-07 16:47:05

--------------------------------------------------------------------------------
Analyzed: Scorpions / Blackout (2014 AF Hybrid SACD)
--------------------------------------------------------------------------------

DR Peak RMS Duration Track
--------------------------------------------------------------------------------
DR12 -1.42 dB -15.14 dB 3:48 1/9-Blackout
DR12 -2.44 dB -16.19 dB 3:46 2/9-Can't Live Without You
DR14 -0.01 dB -16.38 dB 3:57 3/9-No One Like You
DR13 -2.11 dB -17.09 dB 3:38 4/9-You Give Me All I Need
DR11 -2.30 dB -14.89 dB 2:34 5/9-Now!
DR12 -2.07 dB -15.56 dB 4:12 6/9-Dynamite
DR13 -2.04 dB -16.82 dB 3:55 7/9-Arizona
DR12 -1.22 dB -15.15 dB 6:58 8/9-China White
DR12 -1.51 dB -15.67 dB 3:52 9/9-When The Smoke Is Going Down
--------------------------------------------------------------------------------

Number of tracks: 9
Official DR value: DR12

Samplerate: 88200 Hz
Channels: 2
Bits per sample: 24
Bitrate: 2666 kbps
Codec: FLAC
================================================================================
 

4-earredwonder

QQ Lifetime Supporter
QQ Lifetime Supporter
Joined
Jan 9, 2013
Messages
17,468
Is this the best album of 1968? I mean, damn.....it could get my vote. Wow!

Actually, just bought another copy of the MOFI stereo version SACD. Spectacular. $31 from importCD

View attachment 68800
This is the SACD version I currently own, Gene and would love to know if the MoFi is actually significantly better. Also had recently purchased Truth and Beck OLA as a two~fer Japanese import so do I really need the MoFi Truth SACD?
 

GOS

2K Club - QQ Super Nova
QQ Supporter
Joined
Apr 23, 2013
Messages
16,311
Location
Central Illinois
This is the SACD version I currently own, Gene and would love to know if the MoFi is actually significantly better. Also had recently purchased Truth and Beck OLA as a two~fer Japanese import so do I really need the MoFi Truth SACD?
I'll let you know, bro. I honestly doubt they could be too much different. But I'll give it a go.
 

4-earredwonder

QQ Lifetime Supporter
QQ Lifetime Supporter
Joined
Jan 9, 2013
Messages
17,468
I'm consistently AMAZED at the Quality and stunning Sonics which Hong Kong's EVOSOUND label releases and this stunner is NO exception. Chlara's voice is as clear as an angel and the selections on this disc equally gorgeous. All Evosound's SACDs, BTW, come in Super Audio CD cases with slipcovers and this album is also available as an MQA encoded disc:


 
Last edited:
Top