Listening to Now (In Surround) - Volume 2

Help Support QuadraphonicQuad:

4-earredwonder

QQ Lifetime Supporter
QQ Lifetime Supporter
Joined
Jan 9, 2013
Messages
17,258
Leopold Stokowski conducting the London Symphony Orchestra and Chorus MAHLER: SYMPHONY No. 2 "RESURRECTION" [RCA RED SEAL/Dutton Epoch/2 original CD~4 LPs on 1 Multi~CH SACD]. IMO, a monumental achievement superbly recorded and transferred to QUAD SACD!

 

4-earredwonder

QQ Lifetime Supporter
QQ Lifetime Supporter
Joined
Jan 9, 2013
Messages
17,258
The Guess Who's Burton Cummings' Vocalion 3~fer ...... Uniformly excellent. Burton Cummings debut is QUAD and My Own Way To Rock and Dream of a Child are Stereo SACDs. Like fredblue ... am longing for a NEW BATCH of DUTTON VOCALION QUAD SACDs .....

 

GOS

2K Club - QQ Super Nova
QQ Supporter
Joined
Apr 23, 2013
Messages
16,211
Location
Central Illinois
Mr. Big - Lean Into It (30th Anniversary SACD)

foobar2000 1.6.2 / Dynamic Range Meter 1.1.1
log date: 2021-07-26 13:02:58

--------------------------------------------------------------------------------
Analyzed: Mr. Big / Lean Into It [30th Anniversary Edition]
--------------------------------------------------------------------------------

DR Peak RMS Duration Track
--------------------------------------------------------------------------------
DR12 -4.60 dB -21.93 dB 3:55 1/12-Daddy Brother Lover Little Boy (The Electric Drill Song) - Surround Mix
DR13 -4.64 dB -23.87 dB 5:24 2/12-Alive and Kickin' - Surround Mix
DR12 -4.59 dB -23.78 dB 3:33 3/12-Green-Tinted Sixties Mind - Surround Mix
DR13 -4.96 dB -22.94 dB 4:16 4/12-CDFF-Lucky This Time - Surround Mix
DR13 -5.50 dB -24.50 dB 4:05 5/12-Voodoo Kiss - Surround Mix
DR12 -5.10 dB -23.47 dB 3:49 6/12-Never Say Never - Surround Mix
DR13 -4.85 dB -25.51 dB 4:27 7/12-Just Take My Heart - Surround Mix
DR14 -4.70 dB -23.55 dB 4:12 8/12-My Kinda Woman - Surround Mix
DR13 -4.70 dB -24.75 dB 5:19 9/12-A Little Too Loose - Surround Mix
DR13 -5.31 dB -23.13 dB 3:57 10/12-Road to Ruin - Surround Mix
DR13 -4.63 dB -24.46 dB 3:27 11/12-To Be With You - Surround Mix
DR12 -5.48 dB -23.31 dB 3:36 12/12-Love Makes You Strong - Surround Mix
--------------------------------------------------------------------------------

Number of tracks: 12
Official DR value: DR13
 

GOS

2K Club - QQ Super Nova
QQ Supporter
Joined
Apr 23, 2013
Messages
16,211
Location
Central Illinois
Mr. Big - Lean Into It (30th Anniversary SACD)

foobar2000 1.6.2 / Dynamic Range Meter 1.1.1
log date: 2021-07-26 13:02:58

--------------------------------------------------------------------------------
Analyzed: Mr. Big / Lean Into It [30th Anniversary Edition]
--------------------------------------------------------------------------------

DR Peak RMS Duration Track
--------------------------------------------------------------------------------
DR12 -4.60 dB -21.93 dB 3:55 1/12-Daddy Brother Lover Little Boy (The Electric Drill Song) - Surround Mix
DR13 -4.64 dB -23.87 dB 5:24 2/12-Alive and Kickin' - Surround Mix
DR12 -4.59 dB -23.78 dB 3:33 3/12-Green-Tinted Sixties Mind - Surround Mix
DR13 -4.96 dB -22.94 dB 4:16 4/12-CDFF-Lucky This Time - Surround Mix
DR13 -5.50 dB -24.50 dB 4:05 5/12-Voodoo Kiss - Surround Mix
DR12 -5.10 dB -23.47 dB 3:49 6/12-Never Say Never - Surround Mix
DR13 -4.85 dB -25.51 dB 4:27 7/12-Just Take My Heart - Surround Mix
DR14 -4.70 dB -23.55 dB 4:12 8/12-My Kinda Woman - Surround Mix
DR13 -4.70 dB -24.75 dB 5:19 9/12-A Little Too Loose - Surround Mix
DR13 -5.31 dB -23.13 dB 3:57 10/12-Road to Ruin - Surround Mix
DR13 -4.63 dB -24.46 dB 3:27 11/12-To Be With You - Surround Mix
DR12 -5.48 dB -23.31 dB 3:36 12/12-Love Makes You Strong - Surround Mix
--------------------------------------------------------------------------------

Number of tracks: 12
Official DR value: DR13
image.jpg
 
Top