Quantcast

Listening now to this stereo/mono CD.

Help Support QuadraphonicQuad:

Audiowannabee

1K Club - QQ Shooting Star
Joined
Dec 26, 2018
Messages
1,287
Location
Orlando
Ive just been enjoying Tom Petty, Fleetwood Mac, n Prince the last couple days

Tom Petty An American Treasure 4 disc set
Fleetwood Mac s/t cds from deluxe set n Old Peter Green mac need more of him
Prince Purple Rain n The Hits
 

The Rang

1K Club - QQ Shooting Star
Joined
Nov 12, 2006
Messages
1,495
Location
Delta, BC, Canada
A618B7F7-0C5B-4C72-A0B5-20482F9ED69E.jpeg

1998 solo album from Pied Pumpkin, Hometown Band and UHF vocalist Shari Ulrich.
Nice album though entirely slow ballads, would have liked a bit more jump here and there
 

Clement

QQ Lifetime Supporter
QQ Lifetime Supporter
Joined
Aug 25, 2018
Messages
2,927
Location
Evanston, IL, USA

cbmmm3

400 Club - QQ All-Star
QQ Supporter
Joined
Apr 2, 2011
Messages
410
pretty good live album....but....it needs Peter Hook. It will get you toe tapping, dancing...and remind you that the live genre is missed in this Covid era.

neworder.jpg
 

Clement

QQ Lifetime Supporter
QQ Lifetime Supporter
Joined
Aug 25, 2018
Messages
2,927
Location
Evanston, IL, USA

jefe1

2K Club - QQ Super Nova
Joined
Dec 14, 2004
Messages
2,152
Location
Los Angeles
Diamonds by the Yard Elliott Murphy
Great collection from his 70s albums.
He should have become better known
 

Marplot

900 Club - QQ All-Star
Joined
Mar 20, 2018
Messages
955
Location
Ohio, USA
Le Butcherettes bi/MENTAL.
Some really good songs here, would like to catch them live sometime ...
1603809347443.jpeg

Mastered a bit hot, but rare is the CD that isn't this century.
--------------------------------------------------------------------------------
Analyzed: Le Butcherettes / bi/MENTAL
--------------------------------------------------------------------------------

DR Peak RMS Duration Track
--------------------------------------------------------------------------------
DR7 0.00 dB -9.56 dB 5:48 01-spider/WAVES
DR7 0.00 dB -8.22 dB 3:41 02-give/UP
DR8 -0.15 dB -10.51 dB 4:20 03-strong/ENOUGH
DR8 -0.08 dB -9.54 dB 2:19 04-father/ELOHIM
DR8 0.00 dB -9.63 dB 3:12 05-little/MOUSE
DR8 0.00 dB -10.37 dB 3:46 06-in/THE END
DR7 0.00 dB -8.30 dB 3:50 07-nothing/BUT TROUBLE
DR8 -0.05 dB -9.77 dB 2:45 08-la/SANDÍA
DR8 0.00 dB -9.14 dB 4:15 09-struggle/STRUGGLE
DR7 -0.11 dB -9.97 dB 4:32 10-dressed/IN A MATTER OF SPEECH
DR8 -0.04 dB -11.18 dB 3:46 11-mother/HOLDS
DR9 -0.10 dB -11.67 dB 3:41 12-sand/MAN
DR6 0.00 dB -11.01 dB 3:26 13-/BREATH
--------------------------------------------------------------------------------

Number of tracks: 13
Official DR value: DR8
 
Top