Quantcast

Listening now to this stereo/mono CD.

Help Support QuadraphonicQuad:

bktouchstone

Senior Member
Joined
Oct 20, 2013
Messages
249
Listened to half of Tony Bennett Live at Carnegie Hall and half of Belafonte Live at Carnegie Hall. Love them both, but I give edge to the Belafonte recording wise. Still, it’s close. Music wise, that’s tough too, but give the edge to Tony because you just can’t top I Left My Heart in SF. SACDs are from Analog Productions I believe, and both are 3 channel.
 

cbmmm3

300 Club - QQ All-Star
Joined
Apr 2, 2011
Messages
341
all this talk of Ultravox 5.1 Vienna and Midge Ure had me pull from my collection a really really good album. Great stuff.

midge.jpg
 

j9

Well-known Member
Joined
Jun 12, 2010
Messages
100
Gonna keep the Luna rolling along with this hand-full of CD singles…

lunasmilecds.jpg
lunaihopcds.jpg
lunabobbyperucds.jpg
lunabeautifulviewcds.jpg
 

JanBakker

1K Club - QQ Shooting Star
QQ Supporter
Joined
Jun 22, 2014
Messages
1,840
Location
Coevorden, The Netherlands
A metal album from the eighties:

foobar2000 1.5 / Dynamic Range Meter 1.1.1
log date: 2020-08-11 19:41:28

--------------------------------------------------------------------------------
Analyzed: Loudness / Thunder In The East
--------------------------------------------------------------------------------

DR Peak RMS Duration Track
--------------------------------------------------------------------------------
DR13 -1.05 dB -16.77 dB 4:06 01-Crazy Night
DR13 -2.92 dB -17.54 dB 3:46 02-Like Hell
DR13 -2.18 dB -17.75 dB 4:20 03-Heavy Chains
DR13 -1.87 dB -17.09 dB 3:55 04-Get Away
DR13 -1.39 dB -17.15 dB 4:55 05-We Could Be Together
DR14 -0.73 dB -18.01 dB 3:58 06-Run For Your Life
DR13 -0.26 dB -16.78 dB 3:57 07-Clockwork Toy
DR13 -1.94 dB -17.02 dB 4:03 08-No Way Out
DR13 -1.67 dB -17.33 dB 4:50 09-The Lines Are Down
DR13 -2.70 dB -19.75 dB 4:12 10-Never Change Your Mind
--------------------------------------------------------------------------------

Number of tracks: 10
Official DR value: DR13

Samplerate: 44100 Hz
Channels: 2
Bits per sample: 16
Bitrate: 860 kbps
Codec: FLAC
================================================================================
 

j9

Well-known Member
Joined
Jun 12, 2010
Messages
100
Another 4AD release. This one from Mojave 3, Out of Tune.

m3oot.jpg
 

JanBakker

1K Club - QQ Shooting Star
QQ Supporter
Joined
Jun 22, 2014
Messages
1,840
Location
Coevorden, The Netherlands
A metal album from the eighties:

foobar2000 1.5 / Dynamic Range Meter 1.1.1
log date: 2020-08-11 19:41:28

--------------------------------------------------------------------------------
Analyzed: Loudness / Thunder In The East
--------------------------------------------------------------------------------

DR Peak RMS Duration Track
--------------------------------------------------------------------------------
DR13 -1.05 dB -16.77 dB 4:06 01-Crazy Night
DR13 -2.92 dB -17.54 dB 3:46 02-Like Hell
DR13 -2.18 dB -17.75 dB 4:20 03-Heavy Chains
DR13 -1.87 dB -17.09 dB 3:55 04-Get Away
DR13 -1.39 dB -17.15 dB 4:55 05-We Could Be Together
DR14 -0.73 dB -18.01 dB 3:58 06-Run For Your Life
DR13 -0.26 dB -16.78 dB 3:57 07-Clockwork Toy
DR13 -1.94 dB -17.02 dB 4:03 08-No Way Out
DR13 -1.67 dB -17.33 dB 4:50 09-The Lines Are Down
DR13 -2.70 dB -19.75 dB 4:12 10-Never Change Your Mind
--------------------------------------------------------------------------------

Number of tracks: 10
Official DR value: DR13

Samplerate: 44100 Hz
Channels: 2
Bits per sample: 16
Bitrate: 860 kbps
Codec: FLAC
================================================================================
Another one! Metal doesn't have to be brickwalled!!

best one.jpg
 

JanBakker

1K Club - QQ Shooting Star
QQ Supporter
Joined
Jun 22, 2014
Messages
1,840
Location
Coevorden, The Netherlands
foobar2000 1.5 / Dynamic Range Meter 1.1.1
log date: 2020-08-11 20:10:42

--------------------------------------------------------------------------------
Analyzed: Testament / The Legacy
--------------------------------------------------------------------------------

DR Peak RMS Duration Track
--------------------------------------------------------------------------------
DR12 -2.81 dB -16.91 dB 4:07 01-Over the Wall
DR11 -4.58 dB -18.14 dB 4:17 02-The Haunting
DR12 -3.98 dB -17.86 dB 5:07 03-Burnt Offerings
DR11 -3.57 dB -16.12 dB 4:32 04-Raging Waters
DR11 -5.31 dB -18.14 dB 2:32 05-C.O.T.L.O.D.
DR11 -3.18 dB -17.33 dB 3:43 06-First Strike Is Deadly
DR11 -3.51 dB -16.26 dB 4:39 07-Do or Die
DR12 -4.27 dB -17.67 dB 4:05 08-Alone in the Dark
DR12 -3.29 dB -17.05 dB 5:51 09-Apocalyptic City
--------------------------------------------------------------------------------

Number of tracks: 9
Official DR value: DR11

Samplerate: 44100 Hz
Channels: 2
Bits per sample: 16
Bitrate: 933 kbps
Codec: FLAC
================================================================================
 
Top