R.E.M. New Adventures in Hi-Fi (25th Anniversary Edition with Blu-Ray out in October!)

QuadraphonicQuad

Help Support QuadraphonicQuad:

This site may earn a commission from merchant affiliate links, including eBay, Amazon, and others.
I don't know if it's the same audio as the previous DVD, since I never owned the latter, and never heard of. But I reckon it's a good mix.

IMG_20211123_095323.jpg

IMG_20211123_095340.jpg
 
I´m very happy that i saw this thread this week and could by it. I haven´t compared the Bluray to the DVD-V but as it now is lossless that is a benefit in itself. Also there are some videos included which as on Automatic for the people can be played with the surround sound. This is my favourite R.E.M album and i think it sounds as fresh as when it came out. Unfortunately i cannot say that about all of their albums
 
I´m very happy that i saw this thread this week and could by it. I haven´t compared the Bluray to the DVD-V but as it now is lossless that is a benefit in itself. Also there are some videos included which as on Automatic for the people can be played with the surround sound. This is my favourite R.E.M album and i think it sounds as fresh as when it came out. Unfortunately i cannot say that about all of their albums

The DVD-Audio is also lossless.
 
The DVD-Audio is also lossless.
OK i have now seen that my disc is actually an real DVD-A and should be lossless.
What i can say that even if the DVD-A sounds good it doesn´t for example have the full steady bass as the Bluray have. But the main point is that it is really great surround on this album. It is also nice to have the video with Patti Smith on E-bow the letter among the others with surround audio.
 
Last edited:
Is there a reason this isn't on apple music in Dolby Audio (ie 5.1) because the only version I can find on apple music is stereo?
 
So can anyone confirm if the mix is the same between the DVD-A and the Bluray yet?
 
I saw a very indepth review of it and it listed the dvda code and said it was the same as the bluray. I will try to see if I can find it in my history.
 
Data and pictures from the track Leave re the above.

And the box set is a nice package (though I just wanted the discs!).


foobar2000 1.6.7 / Dynamic Range Meter 1.1.1
log date: 2021-12-08 09:32:32

--------------------------------------------------------------------------------
Analyzed: R.E.M. / New Adventures in Hi Fi (Dolby MLP 5.1 24bit 48kHz 2005 DVDA release)
--------------------------------------------------------------------------------

DR Peak RMS Duration Track
--------------------------------------------------------------------------------
DR14 0.00 dB -16.54 dB 4:31 01-How the West Was Won and Where It Got Us
DR12 0.00 dB -13.78 dB 5:08 02-The Wake-Up Bomb
DR11 0.00 dB -14.11 dB 5:27 03-New Test Leper
DR12 0.00 dB -15.16 dB 5:09 04-Undertow
DR13 0.00 dB -14.88 dB 5:25 05-E-Bow the Letter
DR13 0.00 dB -13.84 dB 7:18 06-Leave
DR12 0.00 dB -13.13 dB 3:29 07-Departure
DR11 0.00 dB -13.09 dB 4:06 08-Bittersweet Me
DR13 -0.38 dB -18.78 dB 5:33 09-Be Mine
DR11 0.00 dB -13.05 dB 5:02 10-Binky the Doormat
DR13 -0.29 dB -16.72 dB 2:34 11-Zither
DR12 0.00 dB -13.26 dB 4:12 12-So Fast, So Numb
DR12 0.00 dB -14.45 dB 3:32 13-Low Desert
DR11 0.00 dB -13.03 dB 4:05 14-Electrolite
--------------------------------------------------------------------------------

Number of tracks: 14
Official DR value: DR12

Samplerate: 48000 Hz
Channels: 6
Bits per sample: 24
Bitrate: 4395 kbps
Codec: FLAC
================================================================================



foobar2000 1.6.7 / Dynamic Range Meter 1.1.1
log date: 2021-12-07 19:31:51

--------------------------------------------------------------------------------
Analyzed: R.E.M. / New Adventures In Hi Fi (LPCM 24bit 48kHz 5.1 2021 bluray release)
--------------------------------------------------------------------------------

DR Peak RMS Duration Track
--------------------------------------------------------------------------------
DR13 -3.15 dB -18.88 dB 4:30 01-How the West Was Won and Where It Got Us
DR11 -3.15 dB -15.60 dB 5:08 02-The Wake‐Up Bomb
DR11 -3.15 dB -16.65 dB 5:25 03-New Test Leper
DR12 -3.15 dB -16.74 dB 5:09 04-Undertow
DR13 -3.15 dB -17.47 dB 5:24 05-E‐Bow the Letter
DR12 -3.15 dB -15.29 dB 7:17 06-Leave
DR11 -3.15 dB -14.95 dB 3:29 07-Departure
DR10 -3.15 dB -14.70 dB 4:05 08-Bittersweet Me
DR11 -3.15 dB -16.73 dB 5:33 09-Be Mine
DR11 -3.15 dB -15.54 dB 5:01 10-Binky the Doormat
DR13 -3.15 dB -19.32 dB 2:33 11-Zither
DR11 -3.15 dB -15.01 dB 4:12 12-So Fast, So Numb
DR12 -3.15 dB -15.61 dB 3:32 13-Low Desert
DR11 -3.15 dB -15.37 dB 4:04 14-Electrolite
DR13 -3.21 dB -18.37 dB 5:31 15-E-Bow the Letter (video)
DR11 -3.15 dB -16.44 dB 4:51 16-Bittersweet Me (video)
DR11 -3.75 dB -16.26 dB 4:15 17-Elecrolite (video)
DR13 -3.15 dB -19.35 dB 5:02 18-How the West Was Won and Where It Got Us (video)
DR11 -3.75 dB -16.62 dB 5:37 19-New Test Leper (video)
--------------------------------------------------------------------------------

Number of tracks: 19
Official DR value: DR12

Samplerate: 48000 Hz
Channels: 6
Bits per sample: 24
Bitrate: 4393 kbps
Codec: FLAC
================================================================================
 

Attachments

  • Bluray.png
    Bluray.png
    427.2 KB · Views: 74
  • DVDA.png
    DVDA.png
    359.6 KB · Views: 74
Back
Top