Listening to Now In SACD Stereo (or Mono)

Help Support QuadraphonicQuad:

esimms86

1K Club - QQ Shooting Star
Joined
Aug 2, 2018
Messages
1,145
Location
United States
Ralphie, pass the bong! There’s a great video of a live performance of “Keep Me Hanging On” at the Rock and Roll Hall of Fame. I went there in the summer of 2018 as part of my brother’s “bucket list tour.” We started in Detroit(for the Motown Museum, also coincidentally being there in Aretha’s hometown on the day she died), went from there to Toledo to sample the wares at Tony Packo’s(made famous by Klinger on “M*A*S*H”), then off to Canton to visit the Football Hall of Fame, and finally making a stop at Rock and Roll Hall of Fame in Cleveland.
 

Beefalo

2K Club - QQ Super Nova
QQ Supporter
Joined
Jan 5, 2019
Messages
2,586
Location
You should hear Cornholio sing "Lesbian Seagull"
I see two Japanese SHM SACDs, the UIGY-9052 that you mention and UIGY-9613.
Anyone know what the difference is?
First one mini LP, second one jewel box with the same mastering?
According to Discogs they have the same mastering:
UIGY-9613
2010 DSD Mastering
Single Layer SHM SACD
2014 Reissue
UIGY-9052
2010 DSD Mastering
Single Layer SHM SACD
 

GOS

2K Club - QQ Super Nova
QQ Supporter
Joined
Apr 23, 2013
Messages
15,961
Location
Central Illinois
Vanilla Fudge - debut 1967

Mobile Fidelity SACD mono - number 257 out of 2000 printed.

foobar2000 1.5.3 / Dynamic Range Meter 1.1.1
log date: 2020-05-04 18:22:48

--------------------------------------------------------------------------------
Analyzed: Vanilla Fudge / Vanilla Fudge
--------------------------------------------------------------------------------

DR Peak RMS Duration Track
--------------------------------------------------------------------------------
DR10 -2.30 dB -14.61 dB 6:12 1/10-Ticket To Ride
DR10 -3.74 dB -18.27 dB 6:29 2/10-People Get Ready
DR9 -2.28 dB -14.47 dB 4:55 3/10-She's Not There
DR10 -2.34 dB -17.71 dB 6:22 4/10-Bang Bang
DR13 -10.05 dB -25.99 dB 0:28 5/10-Illusions Of My Childhood - Part One
DR10 -2.44 dB -14.32 dB 6:43 6/10-You Keep Me Hanging On
DR10 -17.50 dB -30.56 dB 0:16 7/10-Illusions Of My Childhood - Part Two
DR10 -2.26 dB -15.03 dB 3:19 8/10-Take Me For A Little While
DR10 -8.52 dB -21.44 dB 0:24 9/10-Illusions Of My Childhood - Part Three
DR11 -1.37 dB -18.09 dB 8:25 10/10-Eleanor Rigby
--------------------------------------------------------------------------------

Number of tracks: 10
Official DR value: DR10

Samplerate: 88200 Hz
Channels: 2
Bits per sample: 24
Bitrate: 1397 kbps
Codec: FLAC
================================================================================
 

bmoura

2K Club - QQ Super Nova
Since 2002/2003
Joined
Mar 2, 2003
Messages
9,519
Location
Redwood City, CA
Sorry, don’t understand DR stuff

Are these good numbers for the Fudge?
The DR thing is a bit puzzling.
DSD files are converted to PCM and then a number is generated for the dynamic range of the converted file.

Doesn't tell you about the sound of the file before being converted to another format. :)
 
Top